Различные видеоуроки собраны в этом разделе. Видео оптимизировано для мобильных устройств.

Видеоуроки » страница 1


| категории | RSS |

  



Видеоуроки
Wed, 17 Apr 2019 10:46:49 +0300Снял простой урок как отключить проверку лицензии Google Play в приложениях на смартфоне, с помощью программы MT manager (vip)
Возможно можно и apk editor все это сделать, но apk editor часто крашит dex

Формат Mp4
WOLF2
NoLicenseGoolePlay

Снял простой урок как отключить проверку лицензии Google Play в приложениях на смартфоне, с помощью программы MT manager (vip)
Возможно можно и apk editor все это сделать, но apk editor часто...

подробнее
Видеоуроки
Fri, 03 Jul 2015 09:54:31 +0300Совсем недавно на ПК вышла новая операционная система – Windows 10. Так как Windows 8 не оправдала ожиданий пользователей, то решили выпустить Windows 10. Новая ОС объединила в себе предыдущие Windows. В этом фильме показано и рассказано, как установить лицензионную Windows 10 для вашего компьютера. Вы узнаете, как бесплатно получить новую ОС.
Название: Как получить лицензионную Windows 10 бесплатно
Год выхода: 2015
Жанр: Обучающий
Страна: Украина
Продолжительность: 00:23:12
Формат: AVI XviD
Качество: WEBRip
Видео: 1920x1080, 15.00 fps, 1774 kbps
Аудио: 44.1 kHz, MP3, 2 ch, 256 kbps
Farthah
Как получить лицензионную Windows 10 бесплатно

Совсем недавно на ПК вышла новая операционная система – Windows 10. Так как Windows 8 не оправдала ожиданий пользователей, то решили выпустить Windows 10. Новая ОС объединила в себе предыдущие...

подробнее
Видеоуроки
Sun, 02 Feb 2014 09:15:53 +0400В настоящее время достаточно средств, которые позволяют приложения превращать в portable версии. Есть как бесплатные решения так и платные версии. Cameyo предлагает бесплатное средство создания виртуальных приложений. Программа Cameyo очень проста в работе, для создания портативного пакета требуется сделать буквально несколько кликов мышью. Построенное на базе современных технологий виртуализации, решение Cameyo способно целиком упаковывать выбранное приложение в отдельный исполняемый файл, исключая необходимость в его установке на жесткий диск. Обработанное приложение становится портативным и может переноситься с одного компьютера на другой на обычном USB-накопителе или в облака.
=====
Автор (режиссер): Василий Купчихин
Жанр: Обучающее видео
Продолжительность: 00:12:32
Качество видео: PCRec
Видеокодек: AVC
Битрейт видео: ~15fps 558kbps
Размер кадра: 1280x720
Аудиокодек: AAC
Битрейт аудио: 44100Hz stereo 192kbps
Nemec555
Василий Купчихин | Быстрое создание Portable версий программ

В настоящее время достаточно средств, которые позволяют приложения превращать в portable версии. Есть как бесплатные решения так и платные версии. Cameyo предлагает бесплатное средство создания...

подробнее
Видеоуроки
Sun, 27 Oct 2013 06:42:07 +0400В данном видео показан способ, как установить Wi-Fi соединения без роутера на базе стационарного компьютера с установленной Windows 7.
==========
Год: 2012
Жанр: Видео урок, Обучающий
Продолжительность: 00:03:30
Озвучивание: Оригинальное

Формат: mp4
Качество: HDRip
Видео: MPEG-4, 1920x1080, 29.000 fps, 1715 Kbps
Аудио: MPEG Audio Layer 3, 44, 1 KHz, stereo, 146 Kbps
Размер файла: 46, 6 MbДополнительный скрин #1 (128,48 Kb)
Nemec555
Раздаем WIFI без роутера (2012)

В данном видео показан способ, как установить Wi-Fi соединения без роутера на базе стационарного компьютера с установленной Windows 7.
==========
Год: 2012
Жанр: Видео урок,...

подробнее
Видеоуроки
Fri, 22 Feb 2013 13:27:33 +0400Урок №1 - Рисуем ворону

Автор: А. Тимохович
Название: Самоучитель по рисованию. Шаг за шагом.
Формат: AVI(xvid)
Размер кадра: 320x240
Продолжительность: 00:11:02
Битрейт видео: 256kb/s
Аудио: MP3 48 kb/s

Это видео приложение к книге "Самоучитель по рисованию. Шаг за шагом" позволит овладеть законами построения рисунка, основными приемами его создания. Вы сможете увидеть важнейшие этапы создания рисунка, что эффективно позволит вам научиться рисовать.

Сама книга находится здесь Cсылка

В прикрепленном файле следующий урок.

Прикрепленный файл #1: 418062_02._risuem_kamny.avi (27, 45 Mb)

Прикрепленный файл #1: 418062_03.risuem_gory_2.avi (14, 23 Mb)

Прикрепленный файл #1: 418062_04.risuem_koshku.avi (24, 03 Mb)

Прикрепленный файл #1: 418086_05.portret_starika.avi (27, 28 Mb)

Прикрепленный файл #1: 418086_06.jenskiiy_portret.avi (26, 35 Mb)Прикрепленный файл #1: 418086_07.natyurmort.avi (28,21 Mb)
lelik7205
Самоучитель по рисованию - Видеокурс

Урок №1 - Рисуем ворону
Автор: А. Тимохович
Название: Самоучитель по рисованию. Шаг за шагом.
Формат: AVI(xvid)
Размер кадра: 320x240
Продолжительность: 00:11:02
Битрейт...

подробнее
Реклама
Fri, 22 Feb 2013 13:27:33 +0400Урок №1 - Рисуем ворону

Автор: А. Тимохович
Название: Самоучитель по рисованию. Шаг за шагом.
Формат: AVI(xvid)
Размер кадра: 320x240
Продолжительность: 00:11:02
Битрейт видео: 256kb/s
Аудио: MP3 48 kb/s

Это видео приложение к книге "Самоучитель по рисованию. Шаг за шагом" позволит овладеть законами построения рисунка, основными приемами его создания. Вы сможете увидеть важнейшие этапы создания рисунка, что эффективно позволит вам научиться рисовать.

Сама книга находится здесь Cсылка

В прикрепленном файле следующий урок.

Прикрепленный файл #1: 418062_02._risuem_kamny.avi (27, 45 Mb)

Прикрепленный файл #1: 418062_03.risuem_gory_2.avi (14, 23 Mb)

Прикрепленный файл #1: 418062_04.risuem_koshku.avi (24, 03 Mb)

Прикрепленный файл #1: 418086_05.portret_starika.avi (27, 28 Mb)

Прикрепленный файл #1: 418086_06.jenskiiy_portret.avi (26, 35 Mb)Прикрепленный файл #1: 418086_07.natyurmort.avi (28,21 Mb)
DimonVideo


Видеоуроки
Thu, 07 Feb 2013 12:56:38 +0400 Описание видеоурока: В этом ролике мы познакомимся с бесплатной программой для отпетых меломанов ВК Мьюзик.
С ней вы сможете загрузить музыку и видеоролики из популярной социальной сети Вконтакте и таких известных видеохостингов как YouTube, Mail.Ru, Vimeo, Яндекс.Видео и RuTube.
С приложением ВК Мьюзик вы сможете организовать поиск аудио и видео, или же регулярно проверять постоянно обновляющуюся базу данных мультфильмов в форматах AVI и FLV, которую содержит данная программа.
В ее каталоге более трех тысяч отечественных мультфильмов и несколько сотен зарубежных мультсериалов.
ВК Мьюзик – очень удобный инструмент для скачивания мультимедийного контента, не требующий авторизации на сайтах.
При помощи пары кликов вы легко найдете как целые альбомы исполнителей, так и выборочные треки из них.
Кстати, в программе имеется полезная функция выбора желаемого битрейта композиции и размера самого файла.
Любители музыкальных новинок смогут первыми уловить перемены в среде шоу-бизнеса.
Другие функции ВК Мьюзик включают в себя, например, онлайн-проигрыватель, подгружающий эфиры и топ-чарты известных радиостанций.
VK Music позволяет узнать всевозможную информацию о выбранных артистах, их музыкальном «багаже» и похожих альбомах других исполнителей.
При загрузке сразу нескольких файлов можно организовать их в очередь или составить расписание загрузок.
С интерфейсом программы у вас не должно возникнуть проблем. Музыку легко искать, легко и прослушивать. Что также приятно - это отсутствие какой-либо рекламы. Если вам нужна помощь, клавишей F1 вызовите меню доходчивой справки. Изучив настройки ВК Мьюзик, оттюнингуйте ее работу и внешний вид на свой вкус, ведь утилита также поддерживает скины знаменитых плееров iTunes и AIMP.
VK Music отличается стабильной работой и предполагает добавление новых функций на основании заявок от пользователей на форумах.
Эту программу создавали для бесплатного использования широкой аудиторией, что делает ВК Мьюзик незаменимым помощником для истинных меломанов.

 Характеристики видеоурока: Format : MPEG-4
Format profile : Base Media
Codec ID : isom
File size : 6.94 MiB
Duration : 2mn 8s
Overall bit rate : 455 Kbps
Writing application : Lavf53.32.100

Video
ID : 1
Format : AVC
Format/Info : Advanced Video Codec
Format profile : e-mail
Format settings, CABAC : Yes
Format settings, ReFrames : 5 frames
Codec ID : avc1
Codec ID/Info : Advanced Video Coding
Duration : 2mn 8s
Bit rate mode : Variable
Bit rate : 321 Kbps
Width : 1 024 pixels
Height : 576 pixels
Display aspect ratio : 16:9
Frame rate mode : Constant
Frame rate : 25.000 fps
Color space : YUV
Chroma subsampling : 4:2:0
Bit depth : 8 bits
Scan type : Progressive
Bits/(Pixel*Frame) : 0.022
Stream size : 4.90 MiB (71%)
Writing library : x264 core 120
Encoding settings : cabac=1 / ref=5 / deblock=1:0:0 / analyse=0x3:0x113 / me=umh / subme=8 / psy=0 / mixed_ref=1 / me_range=16 / chroma_me=1 / trellis=1 / 8x8dct=1 / cqm=0 / deadzone=21,11 / fast_pskip=1 / chroma_qp_offset=0 / threads=6 / sliced_threads=0 / nr=0 / decimate=1 / interlaced=0 / bluray_compat=0 / constrained_intra=0 / bframes=3 / b_pyramid=2 / b_adapt=2 / b_bias=0 / direct=3 / weightb=1 / open_gop=0 / weightp=2 / keyint=250 / keyint_min=25 / scenecut=40 / intra_refresh=0 / rc_lookahead=50 / rc=crf / mbtree=0 / crf=32.0 / qcomp=0.60 / qpmin=10 / qpmax=51 / qpstep=4 / vbv_maxrate=2048 / vbv_bufsize=8000 / crf_max=0.0 / nal_hrd=none / ip_ratio=1.40 / pb_ratio=1.30 / aq=1:1.00

Audio
ID : 2
Format : AAC
Format/Info : Advanced Audio Codec
Format profile : LC
Codec ID : 40
Duration : 2mn 8s
Bit rate mode : Constant
Bit rate : 128 Kbps
Channel(s) : 2 channels
Channel positions : Front: L R
Sampling rate : 48.0 KHz
Compression mode : Lossy
Delay relative to video : -2ms
Stream size : 1.95 MiB (28%)

Nemec555
Загрузка музыки на ПК из Сети с VK Music.

 Описание видеоурока: В этом ролике мы познакомимся с бесплатной программой для отпетых меломанов ВК Мьюзик.
С ней вы сможете загрузить музыку и видеоролики из популярной социальной сети...

подробнее
Видеоуроки
Thu, 07 Feb 2013 09:11:09 +0400Описание Посмотревши эти два видео Вы сможете произвести замену ТЭНа в своей стиральной машине, они помогут Вам самостоятельно сменить самую износонестойкую часть стиральной машины.

Год выхода: 2012
Жанр: Видеоурок
Перевод: не требуется
Формат:AVI
Время: около 12 мин
Видео:640x480, 25.00fps, 778Kbps
Аудио: mp2, 48000 Hz, stereo, 192 kb/s

2 фильм


Дополнительный скрин #1 (145, 92 Kb)
Farthah
Замена ТЭН в стиральной машине

Описание Посмотревши эти два видео Вы сможете произвести замену ТЭНа в своей стиральной машине, они помогут Вам самостоятельно сменить самую износонестойкую часть стиральной машины.
Год выхода:...

подробнее
Видеоуроки
Thu, 07 Feb 2013 09:10:33 +0400 Описание видеоурока Download Master – один из популярнейших на сегодня загрузчиков файлов из Интернета.

Он был разработан для операционных систем Windows, характеризуется высокой скоростью работы, умеет продолжать оборванные загрузки с места разъединения, воспроизводить и закачивать видео с популярных сетевых сервисов.

Однако, пожалуй, одним из главных «плюсов» Мастера Загрузок является его способность работать как отдельным приложением, так и в качестве интегрированного элемента самых распространенных браузеров – Internet Explorer, Opera, Firefox, Chrome и других.

При интеграции Download Master заменяет собой стандартные компоненты загрузки и запускается из контекстного меню.
Кроме того, загрузчик умеет сканировать буфер обмена, находя ссылки с файлами и предлагает закачать файлы.

Зачастую интеграция Download Master в браузеры происходит автоматически, но чтобы закрепить навыки в этой сфере, сделаем это вручную.
Для этого заходим в раздел «Инструменты» и подраздел «Интеграция».

Здесь содержатся более подробные настройки интеграции в Internet Explorer 4-й версии и выше и другие популярные браузеры.

Чтобы интегрировать Мастер загрузок, например, в браузер Google Chrome, ставите галочку в квадратике напротив браузера.
При этом, конечно же, Chrome уже должен быть установлен на вашем ПК.
Если интеграция прошла успешно, вы увидите соответствующее сообщение.
Теперь все загрузки в браузере будут происходит с ведома Download Master.

 Характеристики видеоурока Format : MPEG-4
Format profile : Base Media
Codec ID : isom
File size : 4.46 MiB
Duration : 1mn 25s
Overall bit rate : 437 Kbps
Writing application : Lavf53.32.100

Video
ID : 1
Format : AVC
Format/Info : Advanced Video Codec
Format profile : e-mail
Format settings, CABAC : Yes
Format settings, ReFrames : 5 frames
Codec ID : avc1
Codec ID/Info : Advanced Video Coding
Duration : 1mn 25s
Bit rate mode : Variable
Bit rate : 304 Kbps
Width : 1 024 pixels
Height : 576 pixels
Display aspect ratio : 16:9
Frame rate mode : Constant
Frame rate : 25.000 fps
Color space : YUV
Chroma subsampling : 4:2:0
Bit depth : 8 bits
Scan type : Progressive
Bits/(Pixel*Frame) : 0.021
Stream size : 3.10 MiB (69%)
Writing library : x264 core 120
Encoding settings : cabac=1 / ref=5 / deblock=1:0:0 / analyse=0x3:0x113 / me=umh / subme=8 / psy=0 / mixed_ref=1 / me_range=16 / chroma_me=1 / trellis=1 / 8x8dct=1 / cqm=0 / deadzone=21, 11 / fast_pskip=1 / chroma_qp_offset=0 / threads=6 / sliced_threads=0 / nr=0 / decimate=1 / interlaced=0 / bluray_compat=0 / constrained_intra=0 / bframes=3 / b_pyramid=2 / b_adapt=2 / b_bias=0 / direct=3 / weightb=1 / open_gop=0 / weightp=2 / keyint=250 / keyint_min=25 / scenecut=40 / intra_refresh=0 / rc_lookahead=50 / rc=crf / mbtree=0 / crf=32.0 / qcomp=0.60 / qpmin=10 / qpmax=51 / qpstep=4 / vbv_maxrate=2048 / vbv_bufsize=8000 / crf_max=0.0 / nal_hrd=none / ip_ratio=1.40 / pb_ratio=1.30 / aq=1:1.00

Audio
ID : 2
Format : AAC
Format/Info : Advanced Audio Codec
Format profile : LC
Codec ID : 40
Duration : 1mn 25s
Bit rate mode : Constant
Bit rate : 128 Kbps
Channel(s) : 2 channels
Channel positions : Front: L R
Sampling rate : 48.0 KHz
Compression mode : Lossy
Delay relative to video : -2ms
Stream size : 1.30 MiB (29%)
Nemec555
Как интегрировать Download Master браузеры

 Описание видеоурока Download Master – один из популярнейших на сегодня загрузчиков файлов из Интернета.
Он был разработан для операционных систем Windows, характеризуется высокой скоростью...

подробнее
Видеоуроки
Thu, 13 Dec 2012 10:09:19 +0400Название: Как складывать футболку
Страна: Китай
Формат: MPEG-4(H.264)
Разрешение: 320:240
Продолжительность: 00:00:21
Качество аудио: 128kbps, 44100hZ, AAC
Качество видео: 980kbps, 29fps

Описание: Китаянка показывает как складывать футболку...Дополнительный скрин #1 (24,49 Kb)Дополнительный скрин #2 (18,83 Kb)
xvoskresxim
Как складывать футболку

Название: Как складывать футболку
Страна: Китай
Формат: MPEG-4(H.264)
Разрешение: 320:240
Продолжительность: 00:00:21
Качество аудио: 128kbps, 44100hZ, AAC
Качество...

подробнее
Видеоуроки
Wed, 28 Nov 2012 21:41:08 +0400как наклеить защитную плёнку? мастером может стать каждый!
viking77
Как наклеить защитную пленку

как наклеить защитную плёнку? мастером может стать...

подробнее

Напомнить пароль

Яндекс.Метрика